#TITLE:Loving Eurobeat;
#SUBTITLE:;
#ARTIST:Unknown artist;
#TITLETRANSLIT:;
#SUBTITLETRANSLIT:;
#ARTISTTRANSLIT:;
#GENRE:;
#CREDIT:;
#BANNER:221.jpg;
#BACKGROUND:;
#LYRICSPATH:;
#CDTITLE:221.jpg;
#MUSIC:LoveEuro.mp3;
#OFFSET:-1.507;
#SAMPLESTART:59.600;
#SAMPLELENGTH:12.000;
#SELECTABLE:YES;
#BPMS:0.000=162.000;
#STOPS:;
#DELAYS:;
#TIMESIGNATURES:0.000=4=4
;
#BGCHANGES:;
#KEYSOUNDS:;
#ATTACKS:;
// cache tags:
#FIRSTBEAT:14.000;
#LASTBEAT:205.000;
#SONGFILENAME:/Songs/ParaPara/Loving Eurobeat/Loving Eurobeat.sm;
#HASMUSIC:1;
#HASBANNER:1;
#MUSICLENGTH:82.651;
// end cache tags

//---------------para-single - Blank----------------
#NOTES:
     para-single:
     Blank:
     Beginner:
     1:
     0.304,0.341,0.206,0.460,0.000,121.000,17.000,38.000,0.000,0.000,0.000,0.000,-1.000,-1.000,0.304,0.341,0.206,0.460,0.000,121.000,17.000,38.000,0.000,0.000,0.000,0.000,-1.000,-1.000:
00000
00000
00000
00000
,
00000
00000
00000
00000
,
00000
00000
00000
00000
,
00000
00000
02020
03030
,
00100
00000
02020
03030
,
00100
00000
02020
03030
,
00100
00000
00000
00000
00010
00100
01000
00000
,
01000
00100
00010
00000
02020
00000
03030
00000
,
00100
00000
02020
03030
,
00100
00000
02020
03030
,
00100
00000
00000
00000
00010
00100
01000
00000
,
01000
00100
00010
00000
00010
00000
00000
00000
,
01000
00000
00010
00000
,
01000
00000
02000
03000
,
01000
01000
00020
00030
,
00010
00010
00010
00000
,
01000
00000
00010
00000
,
01000
00000
02000
03000
,
01000
01000
00020
00030
,
00010
00010
01000
00010
,
01000
00010
00000
00010
,
00000
00000
00010
01000
,
00010
01000
00000
01000
,
00000
00000
01000
00100
,
00010
00000
00010
00100
,
01000
00000
00000
00000
01000
00100
00010
00000
,
00010
00100
01000
00000
00000
00000
00000
10001
,
00000
00000
00000
00000
,
00200
00000
00300
00000
00000
00000
00000
00100
,
01010
00000
00000
00000
01000
00100
00010
00000
,
00010
00100
01000
00000
00100
00000
00000
00000
,
02020
03030
00000
00000
,
00020
00030
00000
00000
,
02000
00000
03000
00000
00000
01000
00000
00000
,
00000
00000
00000
00000
00000
00010
00000
00000
,
00000
00000
00000
00000
,
00200
00000
00300
00000
00000
00000
00000
00100
,
01010
00000
00000
00000
01000
00100
00010
00000
,
00010
00100
01000
00000
00100
00000
00000
00000
,
02020
03030
00000
00000
,
00020
00030
00000
00000
,
02000
00000
03000
00000
00000
01000
00000
00000
,
00000
00000
00000
00000
00000
00010
00000
00000
,
00000
00000
02020
03030
,
00100
00000
02020
03030
,
00100
00000
02020
03030
,
00100
00000
00000
00000
00010
00100
01000
00000
,
01000
00100
00010
00000
02020
00000
03030
00000
,
00100
00000
02020
03030
,
00100
00000
02020
03030
,
00100
00000
00000
00000
00010
00100
01000
00000
,
01000
00100
00010
00000
00000
00000
00000
00000
;

//---------------para-single - Blank----------------
#NOTES:
     para-single:
     Blank:
     Edit:
     1:
     0.304,0.341,0.206,0.460,0.000,121.000,17.000,38.000,0.000,0.000,0.000,0.000,-1.000,-1.000,0.304,0.341,0.206,0.460,0.000,121.000,17.000,38.000,0.000,0.000,0.000,0.000,-1.000,-1.000:
00000
00000
00000
00000
,
00000
00000
00000
00000
,
00000
00000
00000
00000
,
00000
00000
02020
03030
,
00100
00000
02020
03030
,
00100
00000
02020
03030
,
00100
00000
00000
00000
00010
00100
01000
00000
,
01000
00100
00010
00000
02020
00000
03030
00000
,
00100
00000
02020
03030
,
00100
00000
02020
03030
,
00100
00000
00000
00000
00010
00100
01000
00000
,
01000
00100
00010
00000
00010
00000
00000
00000
,
01000
00000
00010
00000
,
01000
00000
02000
03000
,
01000
01000
00020
00030
,
00010
00010
00010
00000
,
01000
00000
00010
00000
,
01000
00000
02000
03000
,
01000
01000
00020
00030
,
00010
00010
01000
00010
,
01000
00010
00000
00010
,
00000
00000
00010
01000
,
00010
01000
00000
01000
,
00000
00000
01000
00100
,
00010
00000
00010
00100
,
01000
00000
00000
00000
01000
00100
00010
00000
,
00010
00100
01000
00000
00000
00000
00000
10001
,
00000
00000
00000
00000
,
00200
00000
00300
00000
00000
00000
00000
00100
,
01010
00000
00000
00000
01000
00100
00010
00000
,
00010
00100
01000
00000
00100
00000
00000
00000
,
02020
03030
00000
00000
,
00020
00030
00000
00000
,
02000
00000
03000
00000
00000
01000
00000
00000
,
00000
00000
00000
00000
00000
00010
00000
00000
,
00000
00000
00000
00000
,
00200
00000
00300
00000
00000
00000
00000
00100
,
01010
00000
00000
00000
01000
00100
00010
00000
,
00010
00100
01000
00000
00100
00000
00000
00000
,
02020
03030
00000
00000
,
00020
00030
00000
00000
,
02000
00000
03000
00000
00000
01000
00000
00000
,
00000
00000
00000
00000
00000
00010
00000
00000
,
00000
00000
02020
03030
,
00100
00000
02020
03030
,
00100
00000
02020
03030
,
00100
00000
00000
00000
00010
00100
01000
00000
,
01000
00100
00010
00000
02020
00000
03030
00000
,
00100
00000
02020
03030
,
00100
00000
02020
03030
,
00100
00000
00000
00000
00010
00100
01000
00000
,
01000
00100
00010
00000
00000
00000
00000
00000
;
